e-pizarra

Inicio » Recursos » El video digital (VI): Cambiar entre XVID y DIVX en 1 segundo

El video digital (VI): Cambiar entre XVID y DIVX en 1 segundo

TDT HD multiformato XVID MKV

Figura 1.

Me gusta el cine y tengo unas cuantas películas, originales, en DVD. Algunas de ellas, para experimentar, las comprimí en formato AVI utilizando como códec de video DivX y de audio MP3, porque mí sintonizador TDT, que era de los primeros que salieron con conectividad USB, no admitía el audio en AC3, ni otros codecs de video, como el XviD.

Pero el TDT se me estropeó, por lo que decidí comprarme uno mucho mejor que el que tenía (fig. 1) que permitía sintonizar canales HD (High Definition) y reproducir “casi” todos los codecs de video y audio, pero… ¡Sí!, lo adivinaste, no reproduce DivX.

¿Qué hacía? Volvía a comprimir las películas que quería con el códec XviD, lo que me llevaría de 3 a 5 horas por película, o me olvidaba de reproducirlas en el TDT.

No, tenía que haber otra solución y la encontré. Yo sabía que los codecs DivX y XviD son muy similares, y debería haber una forma de cambiar la cabecera, que es la parte del archivo en la que se guarda la información técnica (codecs utilizados, bitrate, resolución,…)

Cambiando la cabecera, de DIVX a XVID

Esta idea se me ocurrió porque ya había hecho algo parecido con un archivo de audio. Utilizando CDex, cambié la cabecera de un archivo MP3 para que PowerPoint lo identificara como un WAV y funcionó…, quizás hable de ello en otro artículo.

Se puede editar la cabecera de video de archivos AVI con la utilidad Nic FourCC Changer, que forma parte del paquete free (gratuito) XVID Video. Después de instalar el paquete, se ejecuta Nic FourCC Changer (fig. 2)

Nic FourCC Changer DIVX XVID

Figura 2.

Nic FourCC Changer DIVX XVID

Figura 3.

Nic FourCC Changer DIVX XVID

Figura 4.

Se localiza (clic en el icono de los puntos: …, fig. 2) la película y se mostrará su códec de video (fig. 3), se cambia a XviD, en ambas listas (fig. 4) y se aplican los cambios (clic en Apply, fig. 4). Se Acepta la confirmación del cambio (fig. 5) y ya está, con este cambio “engañaremos” al reproductor.

Nic FourCC Changer DIVX XVID

Figura 5.

Cambiando la cabecera, de XVID a DIVX

Nic FourCC Changer XVID DIVX

Figura 6.

Si quisiéramos cambiar el XviD por DivX, procederíamos de forma análoga. Se carga el archivo, se selecciona DivX como códec en ambas listas y se aplican los cambios (fig. 6)

No siempre funciona

Es recomendable que el proceso aquí descrito lo hagas sobre una copia y no en el video original, por si acaso no funciona.

No estamos recodificando el video, esto es un “apaño” que, aunque casi siempre funciona, puede fallar. Lo que hacemos es aprovecharnos de las similitudes de dos códecs de video para “engañar” al reproductor y no tener que volver a codificar el video con el nuevo códec porque nos llevaría 1 o varias horas, dependiendo de la duración del video y del equipo utilizado, en lugar de unos segundos.

Enlace a: XVID Video

Enlace alternativo para Windows de 32 y 64 bits (v 1.3.2): Xvid-1.3.2-20110601.exe


8 comentarios

  1. Somrba dice:

    Gracias por este post. Lo probaré esta tarde. Es un coñazo tener que comprimirlo con el codec xvid ya que tarda siglos en completar… Espero tener suerte.

  2. Sombra dice:

    ¡Soy yo de nuevo! Confirmo que me ha funcionado el truco. Me has salvado la vida. ¡Miles de gracias!

  3. Angel dice:

    Estupendo truco, me habia bajado la serie de la HBO “De la Tierra a la Luna” que no me funcionaba en el TV, estando comprimida con DivX, y cambiando a XVID ¡ya funciona!.Gracias!

  4. Alex dice:

    Hola,hice todo paso por paso,pero ahora el video no se ve en ningun reproductor,solo se escucha,si pueden ayudarme

    • epizarra dice:

      Buenos días Alex. Lamento que no te funcionara el “truco”, espero que hayas hecho copia del original antes de hacer el cambio, como sugiero en el artículo. Si solo se oye pero no se ve es porque tu reproductor no admite el códec de video y sí el de audio ¿Puedes indicarme en que reproductores lo has probado?. Si aún tienes el original, con la herramienta mediainfo puedes exportar en un archivo de texto la información del archivo y pegar esa información como respuesta a este comentario.

      • Alex dice:

        Gracias por responder,ese es el problema,que no hice copia,y es un video importante..he probado casi todos los reproductores a convertirlo pero nada,despues te dejó la informacion del video.gracias

  5. alex dice:

    bueno lo intente casi todo,con todos los reproductores en el movil etc…dejo las caracteristicas del video tal como esta por si se puede hacer algo,gracias

    General
    Complete name : I:\MOVI0013.avi
    Format : AVI
    Format/Info : Audio Video Interleave
    File size : 802 MiB
    Duration : 9mn 17s
    Overall bit rate : 12.1 Mbps
    Director : Generplus
    Original source form/Distribut : Generplus
    Recorded date : 2010-06-29
    Copyright : Generplus

    Video
    ID : 0
    Format : MPEG-4 Visual
    Codec ID : XVID
    Codec ID/Hint : XviD
    Duration : 9mn 17s
    Bit rate : 11.2 Mbps
    Width : 1 920 pixels
    Height : 1 080 pixels
    Display aspect ratio : 16:9
    Frame rate : 30.000 fps
    Color space : YUV
    Chroma subsampling : 4:2:0
    Compression mode : Lossy
    Bits/(Pixel*Frame) : 0.179
    Stream size : 741 MiB (92%)

    Audio
    ID : 1
    Format : PCM
    Format settings, Endianness : Little
    Format settings, Sign : Signed
    Codec ID : 1
    Duration : 9mn 17s
    Bit rate mode : Constant
    Bit rate : 512 Kbps
    Channel(s) : 1 channel
    Sampling rate : 32.0 KHz
    Bit depth : 16 bits
    Stream size : 34.0 MiB (4%)
    Alignment : Aligned on interleaves
    Interleave, duration : 1000 ms (30.01 video frames)

  6. alex dice:

    pues nada lo he probado en otro equipo,tablet,movil..etc y solo se escucha el sonido

Responder

Introduce tus datos o haz clic en un icono para iniciar sesión:

Logo de WordPress.com

Estás comentando usando tu cuenta de WordPress.com. Cerrar sesión /  Cambiar )

Google photo

Estás comentando usando tu cuenta de Google. Cerrar sesión /  Cambiar )

Imagen de Twitter

Estás comentando usando tu cuenta de Twitter. Cerrar sesión /  Cambiar )

Foto de Facebook

Estás comentando usando tu cuenta de Facebook. Cerrar sesión /  Cambiar )

Conectando a %s

A %d blogueros les gusta esto: